<?xml version="1.0" standalone="no"?>
<!DOCTYPE svg PUBLIC "-//W3C//DTD SVG 1.1//EN" "http://www.w3.org/Graphics/SVG/1.1/DTD/svg11.dtd" >
<svg xmlns="http://www.w3.org/2000/svg">
<metadata>Generated by IcoMoon</metadata>
<defs>
<font id="icofont-alpenresort" horiz-adv-x="1024">
<font-face units-per-em="1024" ascent="960" descent="-64" />
<missing-glyph horiz-adv-x="1024" />
<glyph unicode="&#x20;" horiz-adv-x="512" d="" />
<glyph unicode="&#xe900;" glyph-name="arrow-fat-down" d="M512 170.057l32.234 30.144 479.766 450.972-64.469 74.77-447.532-420.828-447.531 420.828-64.469-74.77 479.766-450.972z" />
<glyph unicode="&#xe901;" glyph-name="arrow-fat-left" d="M234.057 448l30.144-32.234 450.972-479.766 74.77 64.469-420.828 447.532 420.828 447.531-74.77 64.469-450.972-479.766z" />
<glyph unicode="&#xe902;" glyph-name="arrow-fat-right" d="M789.943 448l-30.144 32.234-450.972 479.766-74.77-64.469 420.828-447.532-420.828-447.531 74.77-64.469 450.972 479.766z" />
<glyph unicode="&#xe903;" glyph-name="arrow-fat-up" d="M512 725.943l-32.234-30.144-479.766-450.972 64.469-74.77 447.532 420.828 447.531-420.828 64.469 74.77-479.766 450.972z" />
<glyph unicode="&#xe904;" glyph-name="arrow-smal-down" d="M-3.365 759.313l512-649.281 512 649.281-33.803 26.655-478.197-606.418-478.197 606.418z" />
<glyph unicode="&#xe905;" glyph-name="arrow-smal-left" d="M819.948 960l-649.281-512 649.281-512 26.655 33.803-606.418 478.197 606.418 478.197z" />
<glyph unicode="&#xe906;" glyph-name="arrow-smal-right" d="M197.322-64l649.281 512-649.281 512-26.655-33.803 606.418-478.197-606.418-478.197z" />
<glyph unicode="&#xe907;" glyph-name="arrow-smal-up" d="M1020.635 136.687l-512 649.281-512-649.281 33.803-26.655 478.197 606.418 478.197-606.418z" />
<glyph unicode="&#xe908;" glyph-name="navigation" horiz-adv-x="1289" d="M1275.69 846.222h-1275.69v113.778h1275.69v-113.778zM1275.69 391.111h-1275.69v113.778h1275.69v-113.778zM0-64v113.778h1275.69v-113.778h-1275.69z" />
<glyph unicode="&#xe909;" glyph-name="close" d="M510.057 366.396l-426.509-426.509-83.547 83.547 426.509 426.509-426.509 426.509 83.547 83.547 426.509-426.509 426.509 426.509 83.547-83.547-426.509-426.509 426.687-426.687-83.547-83.547-426.687 426.687z" />
<glyph unicode="&#xe90a;" glyph-name="world" d="M512 960c-282.343 0-512-229.657-512-512s229.657-512 512-512c282.343 0 512 229.657 512 512s-229.657 512-512 512zM940.243 488.528h-206.692c-4.053 137.794-33.773 276.939-83.757 367.451 158.058-54.037 274.237-195.884 290.449-367.451zM512 17.055c-54.037 0-132.391 151.303-140.496 390.417h282.343c-9.456-239.113-87.81-390.417-141.847-390.417zM370.153 488.528c8.105 239.113 86.459 390.417 141.847 390.417s132.391-151.303 140.496-390.417h-282.343zM372.855 855.979c-49.984-90.512-79.704-228.306-83.757-367.451h-206.691c16.211 171.567 133.741 313.414 290.448 367.451zM82.406 407.472h206.691c4.053-137.794 33.773-276.939 83.757-367.451-156.707 54.037-274.237 195.884-290.448 367.451zM649.794 40.021c49.984 90.512 79.704 228.306 83.757 367.451h206.692c-16.211-171.567-132.391-313.414-290.449-367.451z" />
<glyph unicode="&#xe90b;" glyph-name="coupon" d="M832 661.333c24.007 0 46.091 8.033 63.92 21.413l128.080-128.080-618.667-618.667-128.080 128.080c13.381 17.829 21.413 39.913 21.413 63.92 0 58.914-47.752 106.667-106.667 106.667-24.018 0-46.091-8.021-63.92-21.413l-128.080 128.080 618.667 618.667 128.080-128.080c-13.381-17.829-21.413-39.913-21.413-63.92 0-58.914 47.752-106.667 106.667-106.667zM791.165 412.342l142.313 142.325-50.449 50.449c-16.362-5.143-33.508-7.782-51.041-7.782-94.106 0-170.667 76.561-170.667 170.667 0 17.533 2.64 34.679 7.782 51.041l-50.449 50.449-142.325-142.325 34.987-34.987-30.163-30.162-34.987 34.987-355.658-355.658 50.449-50.449c16.362 5.143 33.508 7.782 51.041 7.782 94.106 0 170.667-76.561 170.667-170.667 0-17.533-2.64-34.679-7.782-51.041l50.449-50.449 355.669 355.658-34.987 34.987 30.162 30.162 34.987-34.987zM711.613 431.55l-43.211 43.211 30.17 30.17 43.211-43.211-30.169-30.17zM553.162 589.988l30.17 30.17 43.211-43.211-30.169-30.17-43.211 43.211zM610.776 532.383l30.17 30.17 43.211-43.211-30.17-30.17-43.211 43.211zM495.555 647.609l30.169 30.17 43.211-43.211-30.17-30.17-43.211 43.211z" />
<glyph unicode="&#xe90c;" glyph-name="magnifier" d="M635.196 960c99.724 0.075 199.163-37.742 274.942-113.513 151.557-151.542 151.557-399.172 0-550.713-137.885-137.87-363.084-142.235-515.317-29.241l-304.653-304.622c-14.092-15.484-27.554-29.97-47.861-24.869s-36.163 20.955-41.264 41.26c-5.101 20.305 9.385 33.765 24.871 47.856l304.21 304.178c-113.185 152.186-108.281 377.753 29.688 515.708 75.779 75.771 175.662 113.881 275.385 113.956zM634.729 881.533c-79.168-0.003-157.993-30.414-218.778-91.185-121.568-121.542-121.575-316.916-0.014-438.451s316.977-121.528 438.546 0.015c121.568 121.543 121.077 316.916-0.484 438.45-60.78 60.767-140.102 91.173-219.27 91.171z" />
<glyph unicode="&#xe90d;" glyph-name="play" horiz-adv-x="887" d="M0-64l3.42 1024 885.433-514.972-888.853-509.028zM719.735 445.768l-637.686 371.841 1.142-736.301 636.544 364.46z" />
<glyph unicode="&#xe90e;" glyph-name="upload" d="M563.2 778.877v-586.877h-76.8v575.474l-285.297-268.274-47.503 55.094 377.263 354.506 23.752-22.211 353.512-332.295-47.503-55.094-297.423 279.677zM533.93 806.4l-3.067 2.884-3.067-2.884h6.134zM0 38.4h1024v-76.8h-1024v76.8z" />
<glyph unicode="&#xe90f;" glyph-name="date" d="M872.341 824.114h-135.886v100.701c0 19.412-15.773 35.185-35.185 35.185s-35.185-15.773-35.185-35.185v-100.701h-327.583v100.701c0 19.412-15.773 35.185-35.185 35.185s-35.185-15.773-35.185-35.185v-100.701h-135.886c-72.796 0-132.246-59.45-132.246-132.246v-623.621c0-72.796 59.45-132.246 132.246-132.246h740.095c72.796 0 132.246 59.45 132.246 132.246v623.621c0 72.796-59.45 132.246-132.246 132.246zM132.246 753.744h135.886v-48.531c0-19.412 15.773-35.185 35.185-35.185s35.185 15.773 35.185 35.185v48.531h326.37v-48.531c0-19.412 15.773-35.185 35.185-35.185s35.185 15.773 35.185 35.185v48.531h135.886c33.972 0 61.877-27.905 61.877-61.877v-117.687h-862.635v117.687c0 33.972 27.905 61.877 61.877 61.877zM872.341 6.37h-740.095c-33.972 0-61.877 27.905-61.877 61.877v434.351h863.848v-434.351c0-33.972-27.905-61.877-61.877-61.877z" />
<glyph unicode="&#xe910;" glyph-name="email" d="M128 857.6h768c35.254 0 67.254-14.102 90.034-37.424 23.322-23.322 37.966-55.322 37.966-90.576v-576c0-35.254-14.644-67.254-37.966-90.034-22.78-23.322-54.78-37.966-90.034-37.966h-768c-35.254 0-67.254 14.644-90.576 37.966-22.78 22.78-37.424 54.78-37.424 90.034v576c0 35.254 14.644 67.254 37.424 90.576 23.322 23.322 55.322 37.424 90.576 37.424zM64 603.769l448-269.017 448 269.017v125.831c0 17.356-7.593 33.627-18.983 45.017-11.932 11.932-27.661 18.983-45.017 18.983h-768c-17.356 0-33.627-7.051-45.017-18.983-11.932-11.39-18.983-27.661-18.983-45.017v-125.831zM960 529.464l-431.186-258.712c-9.763-5.966-22.78-6.508-33.085-0.542l-431.729 259.254v-375.864c0-17.356 7.051-33.627 18.983-45.017 11.39-11.39 27.661-18.983 45.017-18.983h768c17.356 0 33.085 7.593 45.017 18.983 11.39 11.39 18.983 27.661 18.983 45.017v375.864z" />
<glyph unicode="&#xe911;" glyph-name="number" d="M149.914 708.096v-327.68c0-22.938 2.458-30.31 19.661-31.949l61.44-5.734v-48.333h-231.014v48.333l65.536 5.734c17.203 2.458 19.661 9.011 19.661 31.949v252.314l-81.92-36.864v58.982l104.038 53.248h42.598zM612.762 355.84v-61.44h-309.658v13.107c0 71.27 30.31 99.123 63.078 123.699 67.994 50.79 164.659 84.378 164.659 157.286 0 45.056-30.31 73.728-76.186 73.728-31.13 0-52.429-7.373-69.632-13.107l-12.288-63.078h-49.152l-5.734 99.123c38.502 12.288 94.208 25.395 142.541 25.395 99.123 0 141.722-49.152 141.722-120.422 0-86.016-85.197-131.891-140.083-162.202-31.13-17.203-77.005-31.949-78.643-72.090h229.376zM761.856 417.28l-4.096 52.429c40.141 6.554 160.563 37.683 160.563 122.88 0 40.141-27.853 71.27-76.186 71.27-18.842 0-36.045-1.638-49.152-4.096-7.373-1.638-14.746-3.277-21.299-4.096l-9.011-58.982h-50.79l-5.734 95.027c40.141 8.192 99.123 18.842 147.456 18.842 96.666 0 135.168-56.525 135.168-118.784 0-65.536-45.875-107.315-107.315-132.71 30.31-7.373 65.536-21.299 88.474-40.96 22.118-18.842 37.683-54.067 37.683-93.389 0-96.666-69.632-171.213-170.394-171.213-77.824 0-124.518 22.938-152.371 36.864l12.288 42.598c18.842-6.554 96.666-22.938 127.795-22.938 79.462 0 112.23 64.717 112.23 108.954 0 55.706-36.045 86.016-97.485 91.75l-77.824 6.554z" />
<glyph unicode="&#xe912;" glyph-name="phone" d="M1024 447.362c0-16.654-13.501-30.155-30.155-30.155s-30.155 13.501-30.155 30.155c0 249.814-202.514 452.328-452.328 452.328-16.654 0-30.155 13.501-30.155 30.155s13.501 30.155 30.155 30.155c283.122 0 512.638-229.516 512.638-512.638zM843.069 447.362c0-16.654-13.501-30.155-30.155-30.155s-30.155 13.501-30.155 30.155c0 149.888-121.508 271.397-271.397 271.397-16.654 0-30.155 13.501-30.155 30.155s13.501 30.155 30.155 30.155c183.197 0 331.707-148.51 331.707-331.707zM857.641 67.626l-101.363-101.363c-90.424-90.424-380.32 28.443-538.429 186.551-158.123 158.123-276.988 447.992-186.551 538.429l101.363 101.363c30.268 30.268 78.198 27.731 105.318-5.417l134.443-164.325c25.663-31.367 23.378-78.869-5.245-107.492l-64.040-64.040c-8.080-8.080-10.291-24.833-4.608-34.308 1.738-3.305 3.045-5.782 5.177-9.518 3.728-6.533 8.342-13.984 13.871-22.18 15.985-23.697 35.983-48.341 60.212-72.571 24.228-24.228 48.902-44.244 72.649-60.26 8.215-5.54 15.686-10.167 22.239-13.907 3.75-2.14 6.238-3.453 7.289-3.968 11.631-6.68 28.424-4.493 36.401 3.483l64.040 64.040c28.614 28.614 76.15 30.888 107.492 5.245l164.325-134.443c33.18-27.146 35.714-75.021 5.417-105.318zM260.492 493.977l64.040 64.040c6.681 6.681 7.285 19.234 1.213 26.656l-134.443 164.325c-4.579 5.597-11.017 5.938-15.994 0.961l-101.363-101.363c-56.723-56.723 49.725-316.31 186.551-453.137 136.813-136.813 396.425-243.263 453.137-186.551l101.363 101.363c5.006 5.006 4.668 11.388-0.961 15.994l-164.325 134.443c-7.402 6.056-19.989 5.454-26.656-1.213l-64.040-64.040c-27.059-27.059-73.169-33.295-106.484-14.55-7.731 3.863-20.079 10.975-35.813 21.587-26.83 18.095-54.492 40.535-81.572 67.615-27.079 27.079-49.5 54.71-67.565 81.49-10.518 15.592-17.587 27.849-21.459 35.575-19.191 33.313-12.807 79.627 14.371 106.805z" />
<glyph unicode="&#xe913;" glyph-name="facebook" horiz-adv-x="555" d="M345.167-63.996v467.091h156.781l23.475 182.037h-180.256v116.219c0 52.704 14.634 88.617 90.207 88.617l96.391 0.042v162.815c-16.665 2.219-73.883 7.175-140.458 7.175-138.976 0-234.123-84.832-234.123-240.622v-134.246h-157.184v-182.037h157.184v-467.094l187.983 0.004z" />
<glyph unicode="&#xe914;" glyph-name="instagram" d="M512 960c139.051 0 156.489-0.586 211.098-3.081 54.497-2.489 91.715-11.143 124.282-23.798 33.67-13.084 62.222-30.591 90.685-59.055s45.971-57.019 59.055-90.687c12.66-32.568 21.313-69.787 23.8-124.284 2.493-54.609 3.079-72.042 3.079-211.093 0-139.055-0.586-156.488-3.079-211.097-2.487-54.497-11.14-91.715-23.8-124.284-13.084-33.668-30.592-62.224-59.055-90.687s-57.015-45.971-90.685-59.055c-32.566-12.655-69.785-21.309-124.282-23.798-54.609-2.491-72.047-3.081-211.098-3.081s-156.487 0.59-211.096 3.081c-54.499 2.489-91.718 11.143-124.282 23.798-33.67 13.084-62.224 30.591-90.688 59.055s-45.971 57.019-59.053 90.687c-12.662 32.568-21.316 69.787-23.8 124.284-2.493 54.609-3.081 72.042-3.081 211.097 0 139.051 0.588 156.484 3.081 211.093 2.484 54.497 11.138 91.715 23.8 124.284 13.082 33.668 30.589 62.224 59.053 90.687s57.017 45.971 90.688 59.055c32.564 12.655 69.783 21.309 124.282 23.798 54.609 2.496 72.045 3.081 211.096 3.081zM512 867.748c-136.71 0-152.9-0.521-206.892-2.983-49.917-2.278-77.030-10.622-95.071-17.631-23.899-9.289-40.955-20.384-58.871-38.3-17.914-17.918-29.009-34.972-38.298-58.871-7.011-18.041-15.353-45.154-17.633-95.070-2.46-53.992-2.982-70.182-2.982-206.892 0-136.714 0.523-152.904 2.982-206.892 2.28-49.921 10.622-77.033 17.633-95.075 9.289-23.897 20.385-40.953 38.298-58.871 17.916-17.916 34.972-29.011 58.871-38.298 18.041-7.011 45.154-15.355 95.071-17.628 53.983-2.466 70.171-2.985 206.892-2.985s152.91 0.518 206.892 2.985c49.919 2.273 77.030 10.617 95.071 17.628 23.901 9.287 40.958 20.382 58.871 38.298 17.92 17.918 29.016 34.974 38.301 58.871 7.009 18.041 15.353 45.154 17.631 95.075 2.462 53.987 2.985 70.177 2.985 206.892 0 136.71-0.523 152.9-2.985 206.892-2.278 49.916-10.622 77.029-17.631 95.070-9.285 23.899-20.38 40.953-38.301 58.871-17.913 17.916-34.97 29.011-58.871 38.3-18.041 7.009-45.152 15.353-95.071 17.631-53.992 2.462-70.182 2.983-206.892 2.983zM528 287.438c97.514 0 176.564 79.049 176.564 176.563 0 97.512-79.049 176.561-176.564 176.561-97.512 0-176.564-79.049-176.564-176.561 0-97.514 79.052-176.563 176.564-176.563zM528 736c150.221 0 272-121.781 272-271.999 0-150.225-121.779-272.001-272-272.001s-272 121.776-272 272.001c0 150.218 121.779 271.999 272 271.999zM864 736c0-35.344-28.654-64-64-64-35.344 0-64 28.656-64 64 0 35.346 28.656 64 64 64 35.346 0 64-28.654 64-64z" />
<glyph unicode="&#xe915;" glyph-name="tripadvisor" horiz-adv-x="1728" d="M1059.064 943.952c48.235-6.821 95.47-18.936 142.126-33.278 81.478-25.090 158.362-59.947 230.67-105.166 5.032-3.121 11.747-5.102 17.674-5.102 84.95-0.351 169.847-0.228 254.691-0.298 6.838 0 13.641-0.719 20.462-1.105 0-1.666 0.245-2.367-0.035-2.735-3.963-6.119-7.978-12.116-11.958-18.2-28.825-44.202-53.442-90.402-67.96-141.495-1.596-5.47-1.911-10.082 1.806-15.465 75.604-108.567 99.73-227.76 68.135-356.245-27.703-112.687-92.296-200.548-190.431-262.739-70.151-44.482-147.649-65.663-230.46-66.119-34.769-0.21-69.397 4.471-103.377 13.273-82.81 21.496-153.786 62.752-212.26 125.277-7.697 8.206-14.974 16.78-23.197 26.037-30.929-46.095-61.367-91.437-92.524-137.953-31.052 46.394-61.069 91.297-91.016 136.025-2.069-1.087-2.665-1.21-3.068-1.596-0.684-0.561-1.262-1.245-1.823-1.894-70.73-83.547-159.73-134.762-268.174-151.892-60.298-9.556-120.052-6.119-178.631 10.029-83.021 22.811-153.576 66.61-210.577 131.22-55.721 63.191-90.35 136.551-103.377 219.975-14.886 77.831 3.261 152.909 7.767 171.126 13.115 52.951 35.979 101.571 67.364 146.282 2.209 3.174 2.981 8.784 1.929 12.571-12.799 46.937-34.857 89.631-60.683 130.519-6.558 10.397-14.412 20.023-21.671 30 0 1.122 0 2.314 0 3.472 1.455-0.193 2.893-0.456 4.313-0.456 86.896-0.035 173.774-0.070 260.67 0.105 3.787 0 7.995 1.56 11.221 3.629 61.051 39.17 126.101 70.204 194.446 94.365 49.304 17.393 99.608 30.982 150.928 40.906 49.69 9.608 99.643 16.394 150.121 19.708 123.102 9.415 221.465-3.612 286.9-12.782zM950.129 370.065c0-190.817 154.82-346.689 344.953-345.953 190.852 0.684 344.971 152.19 344.83 345.111-0.14 198.812-161.413 348.267-352.23 344.41-188.379-3.945-335.836-155.785-337.554-343.568zM432.699 714.913c-185.609 1.613-347.443-153.295-344.199-350.616 3.016-183.996 154.68-340.009 348.074-338.343 189.081 1.631 341.061 156.013 341.411 342.989 0.281 192.097-153.558 345.97-345.286 345.97zM449.812 804.93c104.833-6.4 196.953-42.939 274.767-113.704 77.656-70.625 123.155-158.73 139.689-262.336 17.025 102.378 61.314 189.642 137.515 259.583 76.341 69.994 167.199 106.726 270.331 114.493-122.366 54.406-251.43 77.515-384.246 80.075-150.981 2.963-297.823-19.287-438.056-78.112zM1294.381 587.76c118.088 0.21 213.733-94.944 213.733-212.909 0-118.421-94.014-209.981-204.931-214.189-123.874-4.752-222.99 93.927-222.955 213.663 0.105 121.086 99.923 215.434 214.154 213.435zM1433.666 374.326c-0.053 76.989-62.296 139.531-138.725 139.531-77.323 0-140.268-62.226-140.601-138.97-0.281-76.411 62.998-139.987 139.584-140.197 76.744-0.298 139.777 62.805 139.742 139.636zM428.14 587.76c118.018 0.123 213.803-95.189 213.522-213.119-0.351-119.403-94.453-208.929-203.423-213.891-124.365-5.698-224.709 93.436-224.481 213.803 0.245 121.945 100.747 215.241 214.382 213.207zM567.268 374.799c-0.245 77.445-62.857 139.181-141.039 139.040-75.429-0.14-138.602-63.787-138.444-139.479 0.193-76.569 63.313-139.531 140.127-139.742 76.358-0.175 139.549 63.401 139.356 140.18zM1294.486 445.178c39.135 0.035 71.221-32.069 70.853-70.975-0.368-38.994-31.928-70.59-70.414-70.607-39.643 0-71.484 31.315-71.396 70.116 0.070 40.257 31.017 71.431 70.958 71.466zM427.772 445.809c39.731 0.035 71.659-31.7 71.817-71.309 0.158-39.257-32.069-71.501-71.607-71.607-40.485-0.088-71.712 31.192-71.677 71.905 0 39.941 31.157 70.958 71.466 71.010z" />
<glyph unicode="&#xe916;" glyph-name="twitter" horiz-adv-x="1280" d="M1260.092 838.797c-46.343-20.562-96.17-34.457-148.454-40.722 53.367 32.009 94.338 82.666 113.635 143.014-49.941-29.633-105.246-51.134-164.158-62.715-47.135 50.232-114.331 81.626-188.68 81.626-142.781 0-258.5-115.734-258.5-258.5 0-20.27 2.262-40.002 6.695-58.912-214.858 10.765-405.342 113.716-532.843 270.096-22.251-38.165-35.001-82.561-35.001-129.944 0-89.699 45.618-168.806 115.004-215.187-42.368 1.322-82.236 12.96-117.099 32.333-0.033-1.088-0.033-2.162-0.033-3.24 0-125.268 89.113-229.731 207.366-253.495-21.673-5.903-44.511-9.038-68.083-9.038-16.677 0-32.844 1.575-48.653 4.614 32.92-102.698 128.365-177.447 241.513-179.542-88.549-69.343-199.994-110.648-321.12-110.648-20.853 0-41.443 1.231-61.68 3.603 114.446-73.351 250.317-116.14 396.318-116.14 475.482 0 735.466 393.909 735.466 735.538 0 11.204-0.248 22.332-0.73 33.412 50.485 36.475 94.314 81.993 128.99 133.843z" />
<glyph unicode="&#xe917;" glyph-name="whatsapp" d="M1024 461.173c0-275.475-225.055-498.794-502.734-498.794-88.119 0-170.895 22.539-242.952 62.007l-278.313-88.386 90.723 267.695c-45.746 75.13-72.091 163.348-72.091 257.511 0.033 275.475 225.022 498.794 502.701 498.794 277.646-0.067 502.667-223.352 502.667-498.827zM525.441 879.158c-230.309 0-417.651-187.389-417.651-417.751 0-91.4 29.568-176.014 79.564-244.863l-52.14-155.093 160.447 51.387c66.001-43.638 144.97-69.049 229.781-69.049 230.309 0 417.717 187.356 417.717 417.717 0.066 230.262-187.375 417.651-417.717 417.651zM806.471 351.771c-3.378 4.988-12.217 8.028-25.44 14.107-13.187 6.079-78.475 35.316-90.584 39.28-12.217 4.063-21.056 6.112-29.895-6.013-8.731-12.124-34.171-39.346-41.968-47.473-7.725-8.094-15.451-9.118-28.709-3.138-13.259 6.145-56.017 18.831-106.681 60.027-39.417 32.111-66.042 71.656-73.732 83.78-7.797 12.091-0.791 18.633 5.785 24.645 5.929 5.451 13.259 14.14 19.906 21.242 6.647 7.037 8.839 12.025 13.259 20.119 4.348 8.094 2.156 15.131-1.114 21.242-3.306 6.079-29.787 65.544-40.89 89.76-11.031 24.183-22.062 20.185-29.823 20.185-7.725 0-16.564 0.991-25.404 0.991s-23.212-2.94-35.321-15.065c-12.109-12.124-46.388-41.362-46.388-100.893 0-59.598 47.466-117.048 54.113-125.109 6.683-8.028 91.769-134.194 226.549-182.625 134.851-48.398 134.851-32.244 159.141-30.195 24.362 2.048 78.475 29.237 89.47 57.45 11.067 28.345 11.067 52.627 7.725 57.682z" />
<glyph unicode="&#xe918;" glyph-name="youtube" horiz-adv-x="1472" d="M731.166 960c0 0-457.322 0-572.104-29.826-61.458-17.172-112.064-67.779-129.236-130.141-29.825-114.782-29.826-352.486-29.826-352.486s0.001-238.606 29.826-351.581c17.172-62.361 66.874-112.064 129.236-129.236 115.686-30.729 572.104-30.73 572.104-30.73s458.229 0 573.008 29.826c62.362 17.172 112.064 65.971 128.332 129.236 30.729 113.879 30.73 351.581 30.73 351.581s0.903 238.608-30.73 353.39c-16.268 62.362-65.97 112.064-128.332 128.332-114.779 31.633-573.008 31.634-573.008 31.634zM585.654 667.166l380.503-219.618-380.503-218.714v438.332z" />
<glyph unicode="&#xe919;" glyph-name="phone2" d="M902.024 194.472c32.285-17.219 44.123-59.189 26.904-91.475l-79.637-123.76c-18.295-29.057-51.656-45.199-86.094-43.047-35.514 3.229-79.637 7.533-109.77 15.066-136.674 36.59-277.653 121.608-397.108 241.063-120.531 119.455-205.549 260.434-241.063 397.108-8.609 30.133-12.914 74.256-15.066 108.693-2.152 33.361 13.99 65.647 41.971 85.018l121.608 81.789c31.209 20.447 74.256 9.686 91.475-23.676l99.008-190.483c13.99-26.904 6.457-60.266-17.219-78.561l-89.322-69.951c34.438-66.723 68.875-119.455 133.445-184.026 60.266-60.266 111.922-95.779 180.797-132.369l69.951 90.399c18.295 23.676 51.656 31.209 78.561 17.219l191.559-99.008zM527.516 713.188c-21.523 4.305-37.666 23.676-37.666 47.352v3.229c1.076 25.828 25.828 45.199 51.656 40.895 78.561-12.914 151.74-49.504 212.006-109.77 59.189-60.266 95.779-134.522 109.77-212.006 5.381-25.828-13.99-50.58-40.895-51.656h-3.229c-22.6-1.076-41.971 15.066-46.275 36.59-9.686 59.189-37.666 115.15-83.941 161.426-45.199 45.199-102.236 73.18-161.426 83.941zM1020.403 489.344c3.229-25.828-16.143-49.504-40.895-51.656h-4.305c-23.676-1.076-43.047 16.143-46.275 38.742-13.99 94.703-57.037 187.254-130.217 260.434s-164.654 117.303-260.434 130.217c-22.6 3.229-39.818 22.6-38.742 46.275v4.305c1.076 26.904 24.752 45.199 50.58 41.971 115.15-16.143 225.996-67.799 314.242-156.045s139.902-199.092 156.045-314.242z" />
</font>
</defs>
</svg>
